TORRENT LOOKUP

Haywire ( 2O12 ) DVDRip XviD-MAX (Size: 1.03 GB)
  ( 2O12 ) DVDRip XviD-MAX.nfo 2.48 KB
  Haywire ( 2O12 ) DVDRip XviD-MAX.avi 1.03 GB
  Torrent downloaded from Demonoid.me.txt 46 Bytes
  Torrent downloaded from Extratorrent.com.txt 40 Bytes
  Torrent downloaded from h33t.com.txt 32 Bytes
  Torrent downloaded from Rarbg.com.txt 33 Bytes


Torrent Info

( Refresh Info )
Name: Haywire ( 2O12 ) DVDRip XviD-MAX
Seeds: 0
Peers: 1
Files: 6
FullSize: 1.03 GB
Category: Movies


Torrent Trackers

http://9.rarbg.com:2710/announce
http://tracker.publicbt.com/announce
http://10.rarbg.com:80/announce
http://tracker.ilibr.org:6969/announce
http://tracker.openbittorrent.com/announce
http://tracker.openbittorrent.com:80/announce
udp://tracker.openbittorrent.com:80/announce
http://exodus.desync.com:6969/announce




Description:

(2012) DVDRip XviD-MAX Format : AVI Format/Info : Audio Video Interleave Format profile : OpenDML File size : 1 GiB up Duration : 1h 49mn Overall bit rate : 1 714 Kbps Writing application : VirtualDubMod 1.5.10.2 (build 2542/release) Writing library : VirtualDubMod build 2542/release Original source form : MAX TORRENTZ Copyright : SIGISMUNT Video ID : 0 Format : MPEG-4 Visual Format profile : AdvancedSimple@L5 Format settings, BVOP : Yes Format settings, QPel : No Format settings, GMC : No warppoints Format settings, Matrix : Default (H.263) Codec ID : XVID Codec ID/Hint : XviD Duration : 1h 49mn Bit rate : 1 325 Kbps Width : 640 pixels Height : 272 pixels Display aspect ratio : 2.35:1 Frame rate : 23.976 fps Resolution : 24 bits Colorimetry : 4:2:0 Scan type : Progressive Bits/(Pixel*Frame) : 0.318 Stream size : 1.01 GiB (77%) Writing library : XviD 61 Audio ID : 1 Format : AC-3 Format/Info : Audio Coding 3 Codec ID : 2000 Duration : 1h 49mn Bit rate mode : Constant Bit rate : 384 Kbps Channel(s) : 6 channels Channel positions : Front: L C R, Surround: L R, LFE Sampling rate : 48.0 KHz Stream size : 300 MiB (22%) Alignment : Aligned on interleaves Interleave, duration : 64 ms (1.54 video frames) Interleave, preload duration : 192 ms Source: DVD (perfect a/v/sync quality,sample included) This torrent is not seedbox supported,please seed it to the MAX Note:If you have something to offer as early releases,seedboxes,links,accounts,etc please contact us on piratepedia[@]msn/gmail.com or our website torentz 3xforum ro (2012) DVDRip XviD-MAX Torrent Free Download http://thepiratebay.org/user/extremezone/0/7 How To Get Your Maxspeed (uTorrent) Torrent Client - Preferences - Bandwidth - Number of connections - Set aprox. 500 for each Torrent Client - Preferences - BiTorrent - Protocol Encryption - Forced Bandwidth Allocation - High (Set download/upload limit - Unlimited) Stop Other Active Torrents - Start downloading and wait for connections. Enjoy and Seed for at least 1:1 ratio. Don\'t forget to say thanks/leave reviews. Before downloading you should check/google search sample \"release name\"\"sample\". Greets to all actual/future p2p/scene QUALITY groups and affiliate websites. Don\'t trust IMDb robot or bad ratings,always watch some trailers first. Ignore stupid comments/fake/mislabeled/no-DVDrips/CAM/TS/RAR uploads. Please spread this release/torrent to your friends/forums/etc. If you need translation subs visit some subtitles sites. Report if you see online streaming or other spam links. Recommended movie player wmPLAYER.. Download Haywire ( 2O12 ) DVDRip XviD-MAX from torrent.

Releated Torrents

torrent name size files age seed leech
963.98 MB 4 26.01.2012 1 96
1.45 GB 8 08.03.2012 1 0
1.41 GB 9 03.03.2012 25 168
1.31 GB 4 02.03.2012 55 271
2 GB 34 27.03.2013 63 6
1.03 GB 3 22.01.2012 0 0
306.37 MB 6 17.04.2013 3 3


Comments ( 0 )



Leave the comment